Classic Albums Led Zeppelin I

Discussion in 'E-Books & Tutorials' started by mitsumi, Jan 13, 2019.

  1. mitsumi

    mitsumi Well-Known Member

    Joined:
    Apr 7, 2018
    Messages:
    12,771
    Likes Received:
    0
    Gender:
    Female
    [​IMG]
    Classic Albums Led Zeppelin I
    WEBRip | English | MP4 | 1920 x 1080 | AVC ~1500 kbps | 25 fps
    AAC 128 Kbps 48.0 KHz | 2 channels | 02:46:34 | 1.94 GB
    Genre: eLearning Video / Guitar lesson
    Released on 12 January 1969, Led Zeppelin is the eponymous d├ębut studio album by music icons, Led Zeppelin. One of the all-time great introductions, Led Zeppelin, marked a significant turning point in the evolution of hard rock and heavy metal while also launching the band to instant stardom.

    Learn to play the following

    * Good Times Bad Times
    * Babe I'm Gonna LeaveYou
    * You Shook Me
    * Dazed and Confused
    * Your Time is Gonna Come
    * Black Mountain Side
    * Communication Breakdown
    * I Can't Quit You Baby
    * How Many More Times

    In this course, LickLibrary veteran, Danny Gill walks you through the many highlights of each song from the British rock giants one phrase at a time, including Jimmy Page's legendary guitar riffs from the track; "Dazed and Confused" and "Good Times Bad Times", to the acoustic mastery of "Babe
    I'm Gonna Leave You".

    also You can find my other great: General
    Complete name : Rhythm Parts.mp4
    Format : MPEG-4
    Codec ID : M4V (isom/avc1/M4A /M4V /mp42)
    File size : 98.2 MiB
    Duration : 8 min 24 s
    Overall bit rate mode : Variable
    Overall bit rate : 1 632 kb/s
    Encoded date : UTC 2018-04-25 11:59:32
    Tagged date : UTC 2018-04-25 11:59:32

    Video
    ID : 1
    Format : AVC
    Format/Info : Advanced Video Codec
    Format profile : [email protected]
    Format settings : CABAC / 4 Ref Frames
    Format settings, CABAC : Yes
    Format settings, RefFrames : 4 frames
    Codec ID : avc1
    Codec ID/Info : Advanced Video Coding
    Duration : 8 min 24 s
    Bit rate : 1 500 kb/s
    Maximum bit rate : 2 577 kb/s
    Width : 1 920 pixels
    Height : 1 080 pixels
    Display aspect ratio : 16:9
    Frame rate mode : Constant
    Frame rate : 25.000 FPS
    Color space : YUV
    Chroma subsampling : 4:2:0
    Bit depth : 8 bits
    Scan type : Progressive
    Bits/(Pixel*Frame) : 0.029
    Stream size : 90.3 MiB (92%)
    Writing library : x264 core 148 r2744kMod b97ae06
    Encoding settings : cabac=1 / ref=4 / deblock=1:0:0 / analyse=0x3:0x113 / me=hex / subme=8 / psy=1 / fade_compensate=0.00 / psy_rd=1.00:0.00 / mixed_ref=1 / me_range=16 / chroma_me=1 / trellis=2 / 8x8dct=1 / cqm=0 / deadzone=21,11 / fast_pskip=1 / chroma_qp_offset=-2 / threads=12 / lookahead_threads=2 / sliced_threads=0 / nr=0 / decimate=1 / interlaced=0 / bluray_compat=0 / constrained_intra=0 / bframes=3 / b_pyramid=2 / b_adapt=1 / b_bias=0 / direct=3 / weightb=1 / open_gop=0 / weightp=2 / keyint=250 / keyint_min=25 / scenecut=40 / intra_refresh=0 / rc_lookahead=50 / rc=2pass / mbtree=1 / bitrate=1500 / ratetol=1.0 / qcomp=0.60 / qpmin=0 / qpmax=69 / qpstep=4 / cplxblur=20.0 / qblur=0.5 / ip_ratio=1.40 / aq=1:1.00
    Encoded date : UTC 2018-04-25 11:59:32
    Tagged date : UTC 2018-04-25 11:59:33

    Audio
    ID : 2
    Format : AAC
    Format/Info : Advanced Audio Codec
    Format profile : LC
    Codec ID : mp4a-40-2
    Duration : 8 min 24 s
    Bit rate mode : Variable
    Bit rate : 128 kb/s
    Maximum bit rate : 144 kb/s
    Channel(s) : 2 channels
    Channel positions : Front: L R
    Sampling rate : 48.0 kHz
    Frame rate : 46.875 FPS (1024 SPF)
    Compression mode : Lossy
    Stream size : 7.69 MiB (8%)
    Encoded date : UTC 2018-04-25 11:53:07
    Tagged date : UTC 2018-04-25 11:59:33

    Screenshots

    [​IMG]
    [​IMG]
    [​IMG]

    Download link:
    Links are Interchangeable - No Password - Single Extraction